#TITLE:Epic Moon;
#SUBTITLE:;
#ARTIST:M-Project Feat RaverRose;
#TITLETRANSLIT:;
#SUBTITLETRANSLIT:;
#ARTISTTRANSLIT:;
#CREDIT:Noc.V - step chart;
#BANNER:epicmoon-banner.png;
#BACKGROUND:epicmoon-bg.png;
#LYRICSPATH:;
#CDTITLE:!aptitle.png;
#MUSIC:M-Project & RaverRose - Epic Moon (BPM Fixed - 166bpm).mp3;
#OFFSET:-0.020;
#SAMPLESTART:121.081;
#SAMPLELENGTH:30.000;
#SELECTABLE:YES;
#BPMS:0.000=166.000,164.000=83.000,212.000=166.000;
#STOPS:;
#BGCHANGES:;
// cache tags:
#FIRSTBEAT:4.000;
#LASTBEAT:568.000;
#SONGFILENAME:Songs/Music V.I.P ^_^/Epic Moon/(Noc.V) M-Project feat RaverRose - Epic Moon.sm;
#HASMUSIC:1;
#HASBANNER:1;
#MUSICLENGTH:264.724;
// end cache tags

//---------------dance-single - ----------------
#NOTES:
     dance-single:
     :
     Hard:
     11:
     0.891,0.912,1.000,0.045,0.684,1324.000,315.000,12.000,0.000,1.000:
0000
0000
0000
0000
,
1001
1001
1100
1100
,
0011
0011
0110
0110
,
1001
1000
1100
0100
0110
0010
0011
0001
,
1001
1001
0110
0110
,
0011
0011
1100
1100
,
0110
0110
1001
1001
,
1001
0000
0010
0000
1001
0000
0100
0000
0110
0000
1000
0000
0110
0000
0001
0010
,
1100
0000
0000
0000
,
1000
0100
0010
1001
0000
1001
0000
1000
0000
0100
0000
0010
0001
0100
0010
1000
,
0100
0010
0100
0000
0010
0100
0010
0000
1000
0200
0300
0010
0200
0300
1000
0001
,
0100
0010
0100
1001
0000
1001
0000
0001
0000
0100
0000
0010
1000
0100
0010
0001
,
1000
0001
1000
0000
0001
1000
0001
0000
0001
0200
0300
0100
0020
0030
1000
0100
,
0010
0100
1000
0110
0000
0110
0000
1000
0000
0001
0000
0100
1000
0100
1000
0100
,
0010
0100
0010
0000
0100
0010
0100
0000
1000
0200
0300
0100
0020
0030
0001
0100
,
0001
0100
0001
1100
0000
1100
0000
0001
0000
0100
0000
0001
0100
0010
1000
0100
,
0001
0100
0001
0000
1000
0100
1000
0000
0001
0200
0300
1000
0200
0300
0001
0010
,
1001
0110
0001
1100
0001
1010
0100
0101
,
1000
0011
0100
0011
1000
0101
0010
0101
,
1000
0110
0001
0110
1000
0011
0100
0011
,
0100
1001
0010
1001
0010
1100
0001
0110
,
1000
0011
0100
1001
0100
1010
0100
0011
,
1000
0110
0001
1100
0010
1001
0100
0101
,
1000
0011
0100
1010
0001
0110
1000
0101
,
1001
0000
0000
0000
0000
0000
0000
0000
0000
0000
0000
0000
1000
0100
0010
0001
,
0110
1000
0100
0010
0001
0100
0010
1000
0100
0001
0100
0010
0001
0100
0010
1000
,
0100
0010
0001
0010
0100
1000
0100
1000
0100
0010
0001
0100
0001
0010
0001
1000
,
0010
0100
0001
0010
0100
1000
0100
0010
0100
1000
0001
0100
0010
1000
0100
1000
,
0010
1000
0001
0100
0010
0100
0001
1000
0100
0010
0001
0100
0010
1000
0100
0010
,
0100
1000
0010
0100
0001
1000
0001
0100
0010
1000
0010
1000
0001
0100
0010
1000
,
0001
0010
0001
0010
0001
1000
0010
0100
0001
1000
0010
0100
0001
1000
0100
0010
,
0001
1000
0100
0010
0001
0100
0001
0010
0001
1000
0100
1000
0010
1000
0010
0100
,
0001
1000
0100
0010
0001
1000
0010
1000
0010
0100
0001
1000
0001
0010
0100
1000
,
0001
1000
0100
0010
0001
0010
0100
0001
0100
1000
0010
0100
0001
1000
0100
0010
,
0001
0100
0001
1000
0001
0010
0001
1000
0100
0010
0001
1000
0100
0010
0100
1000
,
0001
0100
0010
1000
0010
0100
0010
0001
0010
0100
0010
1000
0100
0010
0100
0001
,
0100
0010
1000
0001
0100
0001
0010
0001
0100
0010
1000
0100
0010
0001
0010
0100
,
1000
0001
0100
0010
1000
0010
0100
0001
1000
0010
0100
0001
1000
0010
1000
0010
,
0100
0010
1000
0100
0010
0001
1000
0100
0010
0100
1000
0001
0010
0100
1000
0010
,
0100
0001
0010
0001
0100
0010
1000
0100
0010
0100
1000
0001
0100
0010
1000
0100
,
1001
0000
0000
0000
0000
0000
0000
0000
0000
0000
0000
0000
0000
0000
0100
0010
,
0110
0000
1000
0000
0011
0000
0010
0100
1000
0000
0001
0000
1010
0000
0000
0000
,
0110
0000
0100
0000
1001
0000
0100
0010
0001
0000
1000
0000
0101
0000
0000
0000
,
1100
0000
0100
0000
0011
0000
0010
0100
1000
0000
0001
0000
0110
0000
0000
0000
,
0011
0000
0100
0000
0101
0000
0100
0010
1000
0000
0100
0000
0220
0000
0000
0000
,
1331
0000
0100
0000
0011
0000
1000
0001
1000
0010
0100
0000
0011
0000
0010
0100
,
1001
0000
0010
0000
0101
0000
1000
0100
0010
0001
0100
0000
0110
0000
1000
0100
,
0011
0000
1000
0000
0110
0000
0010
0100
0001
1000
0010
0000
1100
0000
1000
0001
,
1100
0000
0001
0000
0011
0000
1000
0010
0001
0010
1000
0000
0011
0000
1000
0010
,
0101
0000
0010
0000
1001
0000
1000
0100
0001
0100
1000
0000
0011
0000
1000
0010
,
0011
0000
1000
0000
0011
0000
1000
0100
0010
0001
1000
0000
0110
0000
0001
0100
,
1010
0000
0001
0000
0011
0000
1000
0010
0001
1000
0100
0000
0101
0000
1000
0001
,
0110
0000
0000
0000
1000
0000
0000
0000
0011
0000
0000
0000
0100
0000
0010
0000
0100
0000
0001
0000
1000
0000
0000
0000
0011
0000
0000
0000
1000
0100
0010
0001
,
0110
0100
1100
0001
0011
0001
0010
0100
,
1010
1000
1001
0001
0011
1000
0010
0100
,
0101
0001
0011
0010
0110
1000
0100
0010
,
0101
0100
0110
0010
1010
0100
0010
0001
,
1100
0010
0101
1000
0011
0010
0100
1000
,
0101
0010
1100
0001
0110
1000
0010
0100
,
0011
0100
1001
0010
0101
1000
0001
1000
,
0011
0100
1010
0100
1001
0100
0010
0001
,
0110
1000
0110
0001
0110
1000
0100
0010
,
1001
0100
1001
0010
1001
0100
0010
0100
,
0011
0100
1001
0100
1010
0001
0100
0010
,
1100
0001
0110
0001
1010
0100
0001
0100
,
1001
0100
0011
0100
,
1001
0000
0010
0000
1100
0000
0001
0100
,
0101
0010
1100
0001
,
0110
0000
0000
0000
0000
0000
1000
0100
,
0011
0000
0100
1010
0000
0000
0001
0000
0000
0000
1000
0000
0100
0010
0001
0000
,
1100
0000
0010
0101
0000
0000
1000
0000
0000
0000
1000
0000
0001
0010
0100
0000
,
1001
0000
0100
0110
0000
0000
0001
0000
0000
0000
0001
0000
1000
0010
0100
0000
,
0110
0000
1000
1001
0000
0000
1000
0000
0000
0000
0001
0000
0010
0100
0010
0000
,
1100
0000
0010
0011
0000
0000
0100
0000
0000
0000
0010
0000
1000
0001
1000
0000
,
0110
0000
0010
0101
0000
0000
1000
0000
0000
0000
0001
0000
0010
0100
1000
0000
,
0110
0000
1000
1100
0000
0000
0001
0000
0000
0000
0001
0000
1000
0100
1000
0000
,
0011
0000
0100
1100
0000
0000
0010
0000
0000
0000
1000
0000
0001
0100
0001
0000
,
1100
0000
0100
0101
0000
0000
0010
0000
0000
0000
0010
0000
1000
0010
0100
0000
,
0011
0000
0010
1001
0000
0000
0010
0000
0000
0000
0100
0000
0010
1000
0001
0000
,
0110
0000
1000
0101
0000
0000
0010
0000
0000
0000
1000
0000
1000
0100
0010
0000
,
0110
0000
0010
0101
0000
0000
0010
0000
0000
0000
0010
0000
0010
0100
1000
0000
,
1001
0000
0010
1010
0000
0000
0100
0000
0000
0000
0100
0000
0010
0100
0001
0000
,
1100
0000
0010
1001
0000
0000
0001
0000
0000
0000
1000
0000
0100
0010
0001
0000
,
1001
0000
0100
0101
0000
0000
0010
0000
0000
0000
1000
0000
0001
0010
0001
0000
,
0100
0000
0010
0100
0000
0000
0010
0000
0000
0000
0100
0000
0010
0100
0010
0000
,
1001
0000
0000
0000
,
1010
0100
0011
1000
0110
0001
1100
0010
,
1001
0100
0011
1000
0110
1000
0101
0010
,
0101
0010
1100
0001
0110
1000
0011
0100
,
1010
0001
0110
1000
0101
0010
1001
0100
,
1010
0100
0011
0100
1001
0010
1100
0010
,
0101
1000
0110
0001
1010
0100
1001
0100
,
0011
1000
0110
0001
1010
0100
0011
0100
,
1010
0001
1100
0010
0101
1000
0110
0001
,
1010
0100
1001
0010
1100
0010
0101
1000
,
0101
0010
1100
0010
1001
0100
1001
0010
,
1100
0001
0110
1000
0101
0010
1100
0001
,
0110
0001
1010
0100
0011
0100
1001
0100
,
0011
1000
0110
1000
0101
0010
1100
0100
,
1001
0010
0101
0010
1100
0001
0110
1000
,
0110
1000
0101
0010
1001
0100
1010
0001
,
0110
0000
1000
0000
0101
0000
0000
0000
2000
0000
0000
3000
0200
0000
0000
0300
,
0010
1000
0100
0010
0001
0010
0100
1000
0010
0100
0001
1000
0100
0010
0100
0010
,
1000
0001
0010
0100
1000
0010
0100
0001
0010
0100
0010
0001
1000
0100
1000
0001
,
0100
0010
1000
0001
0100
0010
1000
0010
0100
0010
1000
0010
0100
0001
0100
0010
,
0100
0001
0010
0001
0100
0010
1000
0100
1000
0010
1000
0100
0010
0001
1000
0100
,
0010
0001
1000
0010
0100
0001
1000
0010
0100
0001
0100
0010
1000
0100
1000
0100
,
0010
0001
0010
0001
0100
0010
0100
0001
0100
0010
1000
0001
1000
0001
0100
0010
,
1000
0001
1000
0001
0010
0100
1000
0001
0010
0001
1000
0100
0010
0001
0010
0100
,
1001
0000
0110
0110
,
1001
0100
0011
0100
1010
0100
0010
0001
,
0011
0100
1010
0001
0110
1000
0100
1000
,
0011
0100
1001
0010
1100
0001
0010
0100
,
0101
0010
1001
0010
1100
0100
0001
0100
,
0110
0001
0110
1000
0110
1000
0100
0010
,
1001
0100
1001
0010
1001
0100
0001
0100
,
1100
0010
0101
0010
1001
0100
0010
0001
,
0110
0001
0101
0010
1001
0100
0001
0010
,
1100
0001
0110
0001
1010
0100
0010
1000
,
0101
1000
0110
0001
1010
0100
0001
0010
,
1001
0100
0011
0001
1100
0001
0100
0001
,
1010
0100
0011
1000
0110
1000
0100
0010
,
1000
0100
0010
0001
1000
0100
0010
0001
0100
0010
1000
0001
,
0100
0010
1000
0001
0100
0001
0010
0001
0100
0001
1000
0100
,
0010
0100
1000
0001
0100
1000
0100
0001
0010
1000
0010
0001
,
0110
0110
1001
1001
0110
0000
0110
0000
,
0101
0000
0010
1001
0000
0000
0100
0000
0000
0000
0100
0000
0001
1000
0001
0000
,
1100
0000
0010
0101
0000
0000
1000
0000
0000
0000
1000
0000
0010
0001
0100
0000
,
1001
0000
0100
0011
0000
0000
0001
0000
0000
0000
1000
0000
0100
0010
0100
0000
,
1001
0000
0010
1100
0000
0000
0001
0000
0000
0000
1000
0000
0100
1000
0100
0000
,
0011
0000
1000
0110
0000
0000
0001
0000
0000
0000
0001
0000
0010
0100
1000
0000
,
0101
0000
0010
1100
0000
0000
0001
0000
0000
0000
1000
0000
0100
0010
0001
0000
,
1001
0000
0001
0110
0000
0000
1000
0000
0000
0000
0010
0000
0100
0010
1000
0000
,
0011
0000
0100
1100
0000
0000
0001
0000
0000
0000
0001
0000
0001
1000
0001
0000
,
0110
0000
1000
0011
0000
0000
0100
0000
0000
0000
0100
0000
1000
0100
0010
0000
,
0011
0000
0100
1100
0000
0000
0010
0000
0000
0000
0100
0000
0010
0100
0001
0000
,
1001
0000
0100
1100
0000
0000
0001
0000
0000
0000
0001
0000
1000
0100
0010
0000
,
0101
0000
0010
1100
0000
0000
0001
0000
0000
0000
1000
0000
0100
0010
0100
0000
,
0011
0000
0100
1010
0000
0000
0100
0000
0000
0000
0100
0000
0001
0010
0001
0000
,
1100
0000
0100
0011
0000
0000
0010
0000
0000
0000
0010
0000
1000
0100
1000
0000
,
1000
0100
0010
0001
0010
0100
1000
0001
0010
0100
1000
0100
0010
0001
0010
0100
,
1000
0010
0100
0001
0100
0010
1000
0001
0100
0010
1000
0010
0100
0001
1000
0100
,
1001
0000
0000
0000
;
